All In One IPTV Solution
Върни се   Digital TV Forums - БЪЛГАРСКИЯТ ФОРУМ ЗА ЦИФРОВА ТЕЛЕВИЗИЯ > Сателитни новини, интересни предавания (EPG), полезни сайтове > Новини

Notices

Новини Новини за нови програми честоти спътници и др.

Отговори
 
Контрол над темата Начин на разглеждане
  #41  
Стар 05-12-2018
Аватара на Мартинския
Мартинския Мартинския не е на линия
учащ се
 

Дата на присъединяване: Dec 2014
Местоположение: София
Мнения: 374
Благодари: 65
Получил благодарност:
76 пъти в 62 поста
Сваляния: 2
Ъплоуди: 0
По подразбиране

х265 имаме, ама ключ от бараката нямаме
__________________
София: emme esse 100 см + OCTAGON SF8008 и Blizoo
Северозападa:
emme esse 80 см + EDISION Piccollino LED и A1 DTH
Отговори с цитат
  #42  
Стар 05-12-2018
Аватара на jack82
jack82 jack82 не е на линия
форумец-ветеран
 

Дата на присъединяване: Aug 2011
Мнения: 1,879
Благодари: 477
Получил благодарност:
411 пъти в 287 поста
Сваляния: 89
Ъплоуди: 1
По подразбиране

Цитирай:
Първоначално написано от Мартинския Вижте мненията
х265 имаме, ама ключ от бараката нямаме
Със А1 се крият във една барака. Колкото и да се тропа на вратата никой не отваря
__________________
Нямам нищо само чета и си пиша
http://www.speedtest.net/result/3797217844.png
Отговори с цитат
  #43  
Стар 05-12-2018
Аватара на Анто75
Анто75 Анто75 е на линия
мега форумец
 

Дата на присъединяване: Mar 2012
Местоположение: София
Мнения: 524
Благодари: 100
Получил благодарност:
140 пъти в 86 поста
Сваляния: 47
Ъплоуди: 0
По подразбиране

Някои трябва да извади тарана.
Отговори с цитат
  #44  
Стар 05-12-2018
Аватара на ditev
ditev ditev е на линия
супер форумец
 

Дата на присъединяване: Dec 2008
Мнения: 111
Благодари: 5
Получил благодарност:
80 пъти в 41 поста
Сваляния: 151
Ъплоуди: 0
По подразбиране

Цитирай:
Първоначално написано от jack82 Вижте мненията
Със А1 се крият във една барака. Колкото и да се тропа на вратата никой не отваря
Като потропаш по-силно се обаждат, ама бозата същата като А1.




Код:
General
ID                                       : 3205 (0xC85)
Complete name                            : G:\Arena Sport 1 HD.ts
Format                                   : MPEG-TS
File size                                : 25.9 MiB
Duration                                 : 1 min 1 s
Overall bit rate mode                    : Variable
Overall bit rate                         : 3 539 kb/s
Network name                             : {90DDA122-D72A-44F4-8716-F5971397DE05}
Original network name                    : Astra 1
Frequency                                : 0
OrbitalPosition                          : 0.0W

Video
ID                                       : 201 (0xC9)
Menu ID                                  : 20020 (0x4E34)
Format                                   : HEVC
Format/Info                              : High Efficiency Video Coding
Format profile                           : Main@L4.1@Main
Codec ID                                 : 36
Duration                                 : 9 s 100 ms
Bit rate                                 : 3 170 kb/s
Width                                    : 1 920 pixels
Height                                   : 540 pixels
Display aspect ratio                     : 3.556
Frame rate                               : 50.000 FPS
Standard                                 : Component
Color space                              : YUV
Chroma subsampling                       : 4:2:0 (Type 0)
Bit depth                                : 8 bits
Bits/(Pixel*Frame)                       : 0.061
Stream size                              : 3.44 MiB (13%)
Encryption                               : Conax CAS 5 /7
Color range                              : Limited
Color primaries                          : BT.709
Transfer characteristics                 : BT.709
Matrix coefficients                      : BT.709

Audio
ID                                       : 202 (0xCA)
Menu ID                                  : 20020 (0x4E34)
Format                                   : MPEG Audio
Format version                           : Version 1
Format profile                           : Layer 2
Codec ID                                 : 4
Duration                                 : 9 s 72 ms
Bit rate mode                            : Constant
Bit rate                                 : 192 kb/s
Channel(s)                               : 2 channels
Sampling rate                            : 48.0 kHz
Frame rate                               : 41.667 FPS (1152 SPF)
Compression mode                         : Lossy
Delay relative to video                  : -504 ms
Stream size                              : 213 KiB (1%)
Encryption                               : Conax CAS 5 /7

https://mega.nz/#!SKgHGIYC!74kV3x8gJ...evw3S-NWpq7TUU
__________________
DVB: TBS 6522, DVB Sky, Prof 8000
Антена:Пасат 2.20см, 1.40см
Мотор:SuperJack [75 E - 30 W]
Отговори с цитат
Sponsored Links
VIVO Rent A Car  ВИДЕОЗАСНЕМАНЕ С ДРОН  Изработка на мобилни приложения за iOS
Отговори

Съобщения от Devil M
VIVO Rent A Car  

Тагове
235е, Канали, на, Нови, Пакет


Активни потребители разглеждащи тази тема в момента: 2 (0 членове и 2 гости)
 
Контрол над темата
Начин на разглеждане

Подобни теми
Тема Започнал темата Форум Отговори Последно мнение
Нови канали на 16Е berks НОВИ ЧЕСТОТИ 383 19-11-2018 18:05
Пакет канали на честота 11632 V berks ОБСЪЖДАНЕ УСЛУГИТЕ НА ВИВАКОМ ТВ САТ - Цифрова сателитна телевизия 4 07-06-2011 15:03
От 1 февруари на EuroBird 9A нов пакет канали Джак Новини 0 17-01-2011 20:38
Overon пакет нови програми - 12.5W berks НОВИ ЧЕСТОТИ 0 01-08-2009 11:54
Нови HD Канали Джак HDTV нови канали и новини 30 20-02-2009 00:05


Всички времена са във формат GMT +3. Часът е 07:41.


DTV-BG Powered by vBulletin Version 3.8.5
Copyright ©2000 - 2019, Jelsoft Enterprises Ltd.